#TITLE:Extreme Speedcore Terror;
#SUBTITLE:Impossible;
#ARTIST:Rotterdam Terror Corps;
#TITLETRANSLIT:;
#SUBTITLETRANSLIT:;
#ARTISTTRANSLIT:;
#CREDIT:;
#BANNER:BN.jpg;
#BACKGROUND:BG.jpg;
#LYRICSPATH:;
#CDTITLE:!Torrent.png;
#MUSIC:Extreme Speedcore Terror.mp3;
#OFFSET:-6.640;
#SAMPLESTART:149.620;
#SAMPLELENGTH:11.940;
#SELECTABLE:YES;
#BPMS:0.000=313.001,127.000=196.001,132.000=311.001,180.000=178.001,184.000=312.001,224.000=317.001,248.000=326.001,260.000=320.001,264.500=69.502,268.000=320.001,276.000=303.001,284.000=320.001,336.000=154.002,340.000=316.001,376.000=711.001,380.000=316.001,381.000=470.999,383.000=318.001,387.000=339.001,391.000=310.001,408.000=313.001,472.000=318.002,520.000=322.002,528.000=300.002,544.000=312.002,591.000=301.001,612.000=298.001,697.000=440.001,700.000=316.002,716.000=158.001,720.000=316.002,728.000=158.001,729.000=316.002,768.000=300.002,776.000=311.002,787.000=622.004,789.000=311.002,793.500=212.002,796.000=559.999,800.000=694.999,804.000=312.000,868.000=322.000;
#STOPS:91.000=0.015
,92.000=0.020
,93.000=0.010
,327.500=2.400
,390.000=0.005
,390.333=0.005
,390.500=0.005
,390.917=0.005
,407.000=1.260
,543.500=0.200
,543.667=0.200
,543.667=0.200
,543.833=0.200
,589.333=0.020
,589.417=0.020
,589.500=0.020
,589.583=0.020
,589.750=0.020
,589.917=0.020
,590.875=0.005
,590.938=0.005
,767.000=0.280
,767.500=0.365
,886.000=2.770
;
#BGCHANGES:;
// cache tags:
#FIRSTBEAT:0.000;
#LASTBEAT:904.000;
#SONGFILENAME:Songs/Music V.I.P ^_^/Extreme Speedcore Terror/EST.sm;
#HASMUSIC:1;
#HASBANNER:1;
#MUSICLENGTH:192.399;
// end cache tags

//---------------dance-single - ----------------
#NOTES:
     dance-single:
     :
     Challenge:
     15:
     1.000,1.000,1.000,1.000,1.000,2430.000,720.000,449.000,0.000,157.000:
1100
0011
1100
0011
1100
0011
1100
0011
,
1100
0011
1100
0011
1100
0011
1100
0011
,
2100
3000
0210
0300
0021
0030
0102
0003
1200
0300
0120
0030
2010
3000
0102
0003
,
2010
3000
0201
0300
1020
0030
0102
0003
1200
0300
0120
0030
2010
3000
1002
0003
,
1000
0100
0010
0001
1000
0100
0010
0001
1000
0100
0010
0001
1000
0100
0010
0001
,
1000
0100
0010
0001
1000
0100
0010
0001
1000
0100
0010
0001
1000
0100
0010
0001
,
1100
0011
0101
1010
0101
1010
0101
0011
,
1100
0011
1100
0011
1100
0011
1100
0011
,
2000
3200
2300
3200
2300
3200
2300
3200
,
0320
0032
0023
0032
0023
0032
0023
0032
,
2003
3200
2300
3200
2300
3200
2300
3200
,
0320
0032
0023
0032
0023
0032
0023
0032
,
0103
0000
1000
0000
0100
0000
1000
0000
0100
0010
0100
0010
0100
0010
0100
0010
,
0001
1000
0001
1000
0001
1000
0001
1000
,
0011
0100
1100
0001
1100
0010
1010
0100
,
0011
0001
1100
0010
1010
0001
0110
0001
,
1100
0010
1010
0100
1001
0010
1100
0001
,
0110
0100
1010
0001
0101
0010
1010
0100
,
0011
0001
1100
0010
1100
0001
0110
0001
,
1100
0010
1010
0100
1001
0010
0110
0001
,
1010
0100
1010
0001
0101
0010
1100
0100
,
0011
0001
1100
0010
0110
0001
1010
0001
,
0110
0010
1001
0100
1010
0010
0220
0000
,
0000
0000
0000
0000
0000
0000
0000
0000
0000
0000
0000
0000
1330
0000
0100
0000
0010
0000
1001
0000
0000
0100
0000
0000
,
0010
1000
0200
0320
0032
0203
0320
2030
,
3200
0320
2030
3002
0023
0230
2300
3200
,
0320
0032
0203
0320
2030
3200
0320
2030
,
3200
0320
0032
0203
0320
0230
0302
1103
,
0010
1100
0001
0110
0001
0110
1000
0011
,
1000
0011
1000
0101
0010
0101
0010
1100
,
0001
1100
0001
0110
1000
0110
1000
0101
,
0010
0101
1000
0011
0100
0011
2002
0000
,
0000
0000
0000
0000
,
3103
0100
0100
0100
0100
0100
0100
0100
,
0100
0000
0000
0000
0000
0000
0100
0000
0000
0010
0000
0000
0001
0000
0000
0100
0000
0000
0010
0000
0000
1000
0000
0000
0100
0000
0000
0000
0100
0000
0000
0000
0100
0000
0000
0000
0100
0000
0000
1000
0000
0000
0100
0000
0000
0010
0000
0000
,
1101
0000
1101
0000
1101
0000
1101
0000
1101
0000
1011
0100
1011
0000
1011
0000
,
1011
0000
0000
0000
1011
0000
0000
0000
1011
0000
0000
0000
1011
0000
0000
0000
1110
0000
0000
0000
1110
0001
0100
0001
1110
0001
0100
0001
1110
0000
0001
0000
,
1110
0000
0111
0000
0111
0000
0111
0000
1101
0010
1101
0010
1101
0000
1011
0000
,
1011
1011
1011
1110
0111
1101
1011
1110
,
1000
0000
0000
0000
0000
0000
0000
0000
0000
0000
0000
0000
0001
0000
0000
0000
0000
0000
0000
0000
0000
0000
0000
0000
1000
0000
0000
0000
0000
0000
0000
0000
0000
0000
0000
0000
0001
0000
0000
0000
0000
0000
0000
0000
0000
0000
0000
0000
1000
0000
0000
0000
0000
0000
0000
0000
0100
0000
0000
0000
0000
0000
0000
0000
0010
0000
0000
0000
0000
0000
0000
0000
0001
0000
0000
0000
0000
0000
0000
0000
0100
0000
0000
0000
0000
0000
0000
0000
0010
0000
0000
0000
0000
0000
0000
0000
1000
0000
0000
0000
0000
0000
0100
0000
0000
0000
0000
0000
0010
0000
0000
0000
0000
0000
0001
0000
0000
0000
0000
0000
1000
0000
0000
0000
0000
0000
0100
0000
0000
0000
0000
0000
0010
0000
0000
0000
0000
0000
0001
0000
0000
0000
0000
0000
1000
0000
0000
0000
0000
0000
0000
0000
0100
0000
0000
0000
0000
0000
0000
0000
0010
0000
0000
0000
0000
0000
0000
0000
0001
0000
0000
0000
0000
0000
0000
0000
0100
0000
0000
0000
0000
0000
0000
0000
0010
0000
0000
0000
0000
0000
0000
0000
,
0001
0000
0000
0000
0000
0000
0000
0000
0010
0000
0000
0000
0000
0000
0000
0000
0100
0000
0000
0000
0000
0000
0000
0000
0010
0000
0000
0000
0000
0000
0000
0000
1000
0000
0000
0000
0000
0000
0000
0000
0100
0000
0000
0000
0000
0000
0000
0000
0010
0000
0000
0000
0000
0000
0000
0000
1000
0000
0000
0000
0000
0000
0000
0000
0100
0000
0000
0000
0000
0000
0000
0000
0001
0000
0000
0000
0000
0000
0000
0000
0010
0000
0000
0000
0000
0000
0000
0000
0100
0000
0000
0000
0000
0000
0000
0000
1000
0000
0000
0000
0000
0000
0001
0000
0000
0000
0000
0000
1000
0000
0000
0000
0000
0000
0100
0000
0000
0000
0000
0000
1000
0000
0000
0000
0000
0000
0010
0000
0000
0000
0000
0000
1000
0000
0000
0000
0000
0000
0001
0000
0000
0000
0000
0000
0100
0000
0000
0000
0000
0000
0010
0000
0000
0000
0000
0000
1000
0000
0000
0000
0000
0000
0001
0000
0000
0000
0000
0000
0010
0000
0000
0000
0000
0000
0100
0000
0000
0000
0000
0000
1000
0000
0000
0000
0000
0000
0001
0000
0000
0000
0000
0000
,
1000
0001
0100
0010
0100
0001
1000
0100
0001
1000
0001
0100
1000
0010
0100
0001
0110
0000
1001
0000
0110
0000
1001
0000
0101
0000
0011
0000
1010
0000
1001
0000
,
0101
0000
0000
0000
0000
0000
0010
0000
0000
0000
0000
0000
1000
0000
0000
0000
0000
0000
0001
0000
0000
0000
0000
0000
0100
0000
0000
0000
0000
0000
1000
0000
0000
0000
0000
0000
0001
0000
0000
0000
0000
0000
0100
0000
0000
0000
0000
0000
0010
0000
0000
0000
0000
0000
0000
0000
1000
0000
0000
0000
0000
0000
0000
0000
0010
0000
0000
0000
0000
0000
0000
0000
0100
0000
0000
0000
0000
0000
0000
0000
1000
0000
0000
0000
0000
0000
0000
0000
0001
0000
0000
0000
0000
0000
0000
0000
0100
0000
0000
0000
0000
0000
0010
0000
0000
0000
0000
0000
1000
0000
0000
0000
0000
0000
0100
0000
0000
0000
0000
0000
1000
0000
0000
0000
0000
0000
0001
0000
0000
0000
0000
0000
0010
0000
0000
0000
0000
0000
0001
0000
0000
0000
0000
0000
0010
0000
0000
0000
0000
0000
0000
0000
0100
0000
0000
0000
0000
0000
0000
0000
1000
0000
0000
0000
0000
0000
0000
0000
0001
0000
0000
0000
0000
0000
0000
0000
1000
0000
0000
0000
0000
0000
0000
0000
0001
0000
0000
0000
0000
0000
0000
0000
,
0010
0100
0001
0100
1000
0010
1000
0001
0100
0001
0010
0100
1000
0001
0100
1000
0001
0010
0001
0100
1000
0010
0100
0001
1000
0010
1000
0100
0001
0100
1000
0010
,
0001
0000
0000
0000
0000
0000
1000
0000
0000
0000
0000
0000
0001
0000
0000
0000
0000
0000
0100
0000
0000
0000
0000
0000
0010
0000
0000
0000
0000
0000
1000
0000
0000
0000
0000
0000
0010
0000
0000
0000
0000
0000
0001
0000
0000
0000
0000
0000
0100
0000
0000
0000
0000
0000
0010
0000
0000
0000
0000
0000
0100
0000
0000
0000
0000
0000
0001
0000
0000
0000
0000
0000
1000
0000
0000
0000
0000
0000
0001
0000
0000
0000
0000
0000
1000
0000
0000
0000
0000
0000
0010
0000
0000
0000
0000
0000
0100
0000
0000
0000
0000
0000
0010
0000
0000
0000
0000
0000
0100
0000
0000
0000
0000
0000
1000
0000
0000
0000
0000
0000
0001
0000
0000
0000
0000
0000
0010
0000
0000
0000
0000
0000
0100
0000
0000
0000
0000
0000
1000
0000
0000
0000
0000
0000
0001
0000
0000
0000
0000
0000
0000
0000
0010
0000
0000
0000
0000
0000
0000
0000
0100
0000
0000
0000
0000
0000
0000
0000
2002
0000
0000
0000
0000
0000
0000
0000
0000
0000
0000
0000
0000
0000
0000
0000
0000
0000
0000
0000
0000
0000
0000
0000
,
0000
0000
0000
0000
,
3113
0110
0110
0110
0110
0110
0110
0110
,
0110
0000
0000
0000
0000
0000
0110
0000
0000
0000
0000
0000
0110
0000
0000
0000
0000
0000
0110
0000
0000
0000
0000
0000
0110
0000
0000
0000
0000
0000
1000
0100
0010
0001
1000
0100
0010
0001
1000
0100
0010
0001
1000
0100
0010
0001
1000
0100
,
0010
0110
1100
0110
0011
0110
1100
0110
,
0011
0000
1100
0000
0011
0000
1100
0000
0011
0000
1100
0000
0011
0000
1100
0000
0011
0000
1100
0000
0011
0000
1100
0000
0001
0010
0100
1000
0001
0010
0100
1000
,
0002
0023
0230
2300
,
3002
0203
0320
2030
3002
0203
0320
2030
,
3110
0000
0110
0000
0110
0000
0110
0000
0110
1001
0110
1001
0110
1001
0110
0000
,
0110
0000
0000
0000
0000
0000
0110
0000
0000
0000
0000
0000
1000
0100
0010
0001
1000
0100
0010
0001
1000
0100
0010
0001
1000
0100
0010
0001
1000
0100
0010
0000
0000
0000
0000
0000
1000
0000
0000
0001
0000
0000
0100
0000
0000
0010
0000
0000
,
1000
0100
0010
0000
0010
0000
1111
0000
0000
0000
1111
0000
0000
0000
1111
0000
,
0000
0000
0000
0000
0000
0000
1001
0000
0000
0000
0000
0000
1001
0000
0000
0000
0000
0000
1001
0000
0000
0110
0000
0000
1001
0000
0000
0110
0000
0000
1001
0000
0000
0110
0000
0000
1001
0100
0010
0001
1000
0100
0010
0001
1000
0100
0010
0100
,
1001
1001
1001
1001
1001
1001
1001
1001
,
1001
0000
1001
0000
1001
0000
1001
0000
1001
0000
1001
0000
1001
0000
1001
0110
,
1001
1001
1001
1001
1001
1001
1001
1001
,
1001
1001
1001
1001
1001
1001
1001
1001
,
1001
0100
0010
0100
0010
0100
0010
0100
0010
0100
0010
0100
0010
0100
0010
0100
0010
0100
0010
0100
0010
0100
0010
0100
,
0010
0001
1000
0100
0010
0001
1000
0100
0010
0001
1000
0100
0010
0000
0100
0000
0010
0000
0100
0000
0010
0000
0100
0000
0010
0001
1000
0100
0010
0001
1000
0100
0010
0001
1000
0100
0010
0000
0100
0000
0010
0000
0100
0000
0010
0000
0100
0000
,
1011
0000
0000
1110
0000
0000
0111
0000
1011
0000
1101
0000
,
1110
0000
0111
0000
1110
0000
0111
0000
1100
0011
1100
0000
1011
0000
0000
1101
,
0000
0000
0000
1110
0000
0000
0111
0000
0000
0000
1110
0000
0000
0000
1011
0000
0000
0000
1101
0000
0000
0000
1101
0000
,
0010
0100
0010
0100
0010
0100
0010
0100
0010
1000
0010
0001
0010
1000
0010
0001
,
0010
0100
0020
0000
0000
0000
0000
0000
0000
0000
0000
0000
0000
0000
0000
0000
,
1031
0000
0000
0000
0101
0000
0000
0000
0011
0000
0000
0000
0101
0000
0000
0000
1001
0000
0110
0000
1001
0000
0110
0000
1001
0100
0010
0001
1000
0100
0010
0001
,
2000
0000
0000
0000
0000
0000
0000
0000
0000
0000
0000
0000
0000
0000
0000
0000
0000
0000
0000
0000
0000
0000
0000
0000
0000
0000
0000
0000
0000
0000
0000
0000
0000
0000
0000
0000
0000
0000
0000
0000
0000
0000
0000
0000
0000
0000
0000
0000
3111
0000
0000
0000
0000
0000
1000
0000
0000
0000
0000
0000
0100
0000
0000
0000
0000
0000
0010
0000
0000
0000
0000
0000
0001
0000
0000
0000
0000
0000
1000
0000
0000
0000
0000
0000
0100
0000
0000
0000
0000
0000
0010
0000
0000
0000
0000
0000
0001
0000
0000
0000
0000
0000
0000
0000
0000
0000
0000
0000
0000
0000
0000
0000
0000
0000
0000
0000
0000
0000
0000
0000
0000
0000
0000
0000
0000
0000
0000
0000
1001
0000
0000
0000
0000
0000
0000
0000
0000
0000
0000
0000
0000
0000
0000
0000
0000
0000
0000
0000
0000
0000
0000
0000
0000
0000
0000
0000
0000
0000
0000
0000
1001
0000
0000
0000
0000
0000
0000
0000
0000
0000
0000
0000
0000
0000
0000
0000
0000
0000
0000
0000
0000
0000
0000
0000
0000
0000
0000
0000
0000
0000
0000
0000
,
1001
1001
1001
1001
,
1000
0000
0000
0000
0000
0000
0001
0000
0000
0000
0000
0000
0100
0000
0000
0000
0000
0000
0010
0000
0000
0000
0000
0000
1000
0000
0000
0000
0000
0000
0001
0000
0000
0000
0000
0000
0100
0000
0000
0000
0000
0000
0010
0000
0000
0000
0000
0000
1000
0000
0000
0000
0000
0000
0000
0000
0000
0000
0000
0000
0000
0000
0000
0000
0000
0000
0000
0000
0000
0000
0000
0000
1000
0000
0000
0000
0000
0000
0000
0000
0000
0000
0000
0000
0000
0000
0000
0000
0000
0000
0000
0000
0000
0000
0000
0000
1000
0000
0000
0000
0000
0000
0000
0000
0000
0000
0000
0000
0000
0000
0000
0000
0000
0000
0000
0000
0000
0000
0000
0000
1000
0000
0000
0000
0000
0000
0000
0000
0000
0000
0000
0000
0000
0000
0000
0000
0000
0000
0000
0000
0000
0000
0000
0000
1000
0000
0000
0000
0000
0000
0000
0000
0000
0000
0000
0000
0100
0000
0000
0000
0010
0000
0000
0000
0001
0000
0000
0000
1000
0000
0000
0000
0100
0000
0000
0000
0010
0000
0000
0000
0001
0000
0000
0000
1000
0000
0000
0000
0100
0000
0000
0000
,
0011
0011
0011
0011
0011
0011
0011
0011
,
0011
0011
0011
0011
0011
0011
0011
0011
,
0011
0000
1001
0100
0010
0100
0010
0100
0010
0100
0010
0100
0010
0100
0010
0100
,
0010
0001
1000
0010
0100
0010
0001
0010
0100
1000
0010
0100
1000
0010
0001
0100
,
0010
0100
1000
0100
0001
0010
0001
0100
0010
1000
0100
0010
0001
0100
0010
0001
,
1000
0001
0100
0001
0010
1000
0010
0001
1000
0100
0001
1000
0010
0001
1000
0010
,
0100
0100
0100
0100
0100
0100
0100
0100
,
0100
0100
0100
0100
0100
0100
0100
0100
,
0100
0100
0100
0100
0100
0100
0100
0100
0100
0100
0100
0100
,
0100
0100
0100
0100
0100
0100
0100
0100
0100
0100
0100
0100
,
0200
0000
0300
1111
0000
1111
0000
1111
,
1001
1001
1001
1001
2022
3033
1001
1001
,
1001
0000
0000
0000
0000
0000
0000
0000
0000
0000
0000
0000
0000
0000
0000
0000
0000
0000
0000
0000
0000
0000
0000
0000
1001
0000
0000
0000
0100
0000
0000
0000
0010
0000
0000
0000
0001
0000
0000
0000
1000
0000
0000
0000
0100
0000
0000
0000
0010
0000
0000
0000
0000
0000
0100
0000
0000
0000
0000
0000
0010
0000
0000
0000
0000
0000
0100
0000
0000
0000
0000
0000
0010
0000
0000
0000
0000
0000
0100
0000
0000
0000
0000
0000
0010
0000
0000
0000
0000
0000
0100
0000
0000
0000
0000
0000
1011
0000
0000
0000
0000
0000
0000
0000
0000
0000
0000
0000
0000
0000
0000
0000
0000
0000
0000
0000
0000
0000
0000
0000
1101
0000
0000
0000
0000
0000
0000
0000
0000
0000
0000
0000
0000
0000
0000
0000
0000
0000
0000
0000
0000
0000
0000
0000
1011
0000
0000
0000
0000
0000
0000
0000
0000
0000
0000
0000
0000
0000
0000
0000
0000
0000
0000
0000
0000
0000
0000
0000
1101
0000
0000
0000
0000
0000
0000
0000
0000
0000
0000
0000
0000
0000
0000
0000
0000
0000
0000
0000
0000
0000
0000
0000
,
1021
0000
0000
0000
0000
0000
0000
0000
0000
0000
0000
0000
0000
0000
0000
0000
0000
0000
0000
0000
0000
0000
0000
0000
0000
0000
0000
0000
0000
0000
0000
0000
0000
0000
0000
0000
0000
0000
0000
1000
0001
1000
0001
1000
0001
1000
0001
1000
0001
1000
0001
1000
0001
1000
0001
1000
0001
1000
0001
1000
0001
1000
0001
1030
,
0110
0011
0101
1010
1100
0110
1001
0011
,
1000
0010
0100
0001
1000
0010
0100
0001
1110
0000
1101
0000
1011
0000
0111
0000
,
1001
0011
0101
1010
1100
0011
0110
1001
,
1000
0010
0001
0100
0010
1000
0001
0100
1011
0000
1011
0000
1011
0000
1011
0000
,
0110
1001
0110
1001
0110
1001
0110
1001
0110
1001
0110
1001
0110
0000
0000
0110
0000
0000
0110
0000
0000
0110
0000
0000
,
0110
0110
0110
0110
0110
0110
0110
0110
,
0110
0110
0110
0110
0110
0110
0110
0110
,
0110
0000
1001
0000
0000
0000
1001
0000
0000
0000
1001
0000
0000
0000
1001
0000
0000
0000
1001
0000
0010
0100
0010
0100
0010
0100
0010
0100
0010
0100
0010
0100
,
0011
0110
1010
1100
0101
1001
1010
0011
,
0220
0000
0000
0000
,
2332
0000
3203
0000
0000
0000
0320
0230
,
0320
0230
0320
0230
0320
0230
2322
0000
,
0000
0000
0100
0000
3133
0000
1000
0001
,
1000
0000
0000
0001
0000
0000
1000
0000
0000
0001
0000
0000
1000
0000
0000
0001
0000
0000
1000
0000
0001
0000
1000
0000
,
0001
0000
0000
0000
0000
0000
0000
0000
0000
0000
0000
0000
1000
0000
0000
0000
0000
0000
0000
0000
0000
0000
0000
0000
0001
0000
0000
0000
0000
0000
0000
0000
0000
0000
0000
0000
1000
0000
0000
0000
0000
0000
0000
0000
0000
0000
0000
0000
0001
0000
0000
0000
0000
0000
0000
0000
1000
0000
0000
0000
0000
0000
0000
0000
0001
0000
0000
0000
0000
0000
0000
0000
1000
0000
0000
0000
0000
0000
0000
0000
0001
0000
0000
0000
0000
0000
0000
0000
1000
0000
0000
0000
0000
0000
0000
0000
0001
0000
0000
0000
0000
0000
1000
0000
0000
0000
0000
0000
0001
0000
0000
0000
0000
0000
1000
0000
0000
0000
0000
0000
0001
0000
0000
0000
0000
0000
1000
0000
0000
0000
0000
0000
0001
0000
0000
0000
0000
0000
1000
0000
0000
0000
0000
0000
0001
0000
0000
0000
0000
0000
0000
0000
0000
0000
0000
0000
0000
0000
0000
0000
0000
0000
0000
0000
0000
0000
0000
0000
1000
0000
0000
0000
0000
0000
0000
0000
0000
0000
0000
0000
0000
0000
0000
0000
0000
0000
0000
0000
0000
0000
0000
0000
,
0001
0000
0000
1000
0000
0000
0001
0000
0000
1000
0000
0000
0001
0000
0000
1000
0000
0000
0001
0000
1000
0000
0001
0000
,
1000
0000
0000
0000
0000
0000
0000
0000
0000
0000
0000
0000
0001
0000
0000
0000
0000
0000
0000
0000
0000
0000
0000
0000
1000
0000
0000
0000
0000
0000
0000
0000
0000
0000
0000
0000
0001
0000
0000
0000
0000
0000
0000
0000
0000
0000
0000
0000
1000
0000
0000
0000
0000
0000
0000
0000
0001
0000
0000
0000
0000
0000
0000
0000
1000
0000
0000
0000
0000
0000
0000
0000
0001
0000
0000
0000
0000
0000
0000
0000
1000
0000
0000
0000
0000
0000
0000
0000
0001
0000
0000
0000
0000
0000
0000
0000
1000
0000
0000
0000
0000
0000
0001
0000
0000
0000
0000
0000
1000
0000
0000
0000
0000
0000
0001
0000
0000
0000
0000
0000
1000
0000
0000
0000
0000
0000
0001
0000
0000
0000
0000
0000
1000
0000
0000
0000
0000
0000
0001
0000
0000
0000
0000
0000
2222
0000
0000
0000
0000
0000
3333
0000
0000
0000
0000
0000
0000
0000
0000
0000
1000
0000
0000
0000
0000
0000
0000
0000
0001
0000
0000
0000
0000
0000
0000
0000
1000
0000
0000
0000
0000
0000
0000
0000
0001
0000
0000
0000
0000
0000
0000
0000
,
0220
0330
0220
0330
,
0220
0330
0220
0330
,
0220
0330
0220
0330
,
0220
0330
0220
0330
,
0220
2332
3223
0330
,
0220
2332
3223
0330
,
0220
2332
3223
0330
,
0220
2332
3223
0330
,
0220
2332
3223
2332
,
3223
2332
3223
2332
,
3223
2332
3223
2332
,
3223
0000
2332
0000
3223
0000
2332
3003
,
2002
3003
2002
3003
2002
3003
2002
3003
,
2002
3003
2002
3003
2002
3003
2002
3003
,
2002
3003
2002
3003
2002
3003
2002
3003
,
2002
3003
2002
3003
2002
3003
2002
3003
,
2002
3003
2002
3003
2002
3003
2002
3003
2002
3003
2002
3003
2002
3003
2002
3003
,
2002
3003
2002
3003
2002
3003
2002
3003
2002
3003
2002
3003
2002
3003
2002
3003
,
2002
3003
2002
3003
2002
3003
2002
3003
2002
3003
2002
3003
2002
3003
2002
3003
,
2002
3003
2002
3003
2002
3003
2002
3003
2002
3003
2002
3003
2002
3003
2002
3003
,
2002
3003
0110
0000
2002
3003
0110
0000
2002
3003
0110
0000
2002
3003
0110
0000
2002
3003
0110
0000
2002
3003
0110
0000
2002
3003
0110
0000
2002
3003
0110
0000
,
2002
3003
0110
0000
2002
3003
0110
0000
2002
3003
0110
0000
2002
3003
0110
0000
2002
3003
0110
0000
2002
3003
0110
0000
2002
3003
0110
0000
2002
3003
0110
0000
,
2002
3003
0110
0000
2002
3003
0110
0000
2002
3003
0110
0000
2002
3003
0110
0000
2002
3003
0110
0000
2002
3003
0110
0000
2002
3003
0110
0000
2002
3003
0110
0000
,
2002
3003
0110
0000
2002
3003
0110
0000
2002
3003
0110
0000
2002
3003
0110
0000
2002
3003
0110
0000
2002
3003
0110
0000
2002
3003
0110
0000
2002
3003
0110
0000
,
1000
0100
0010
0001
1000
0100
0010
0001
1000
0100
0010
0001
1000
0100
0010
0001
1000
0100
0010
0001
1000
0100
0010
0001
1000
0100
0010
0001
1000
0100
0010
0001
1000
0100
0010
0001
1000
0100
0010
0001
1000
0100
0010
0001
1000
0100
0010
0001
,
1000
0100
0010
0001
1000
0100
0010
0001
1000
0100
0010
0001
1000
0100
0010
0001
1000
0100
0010
0001
1000
0100
0010
0001
1000
0100
0010
0001
1000
0100
0010
0001
1000
0100
0010
0001
1000
0100
0010
0001
1000
0100
0010
0001
1000
0100
0010
0001
,
1000
0100
0010
0001
1000
0100
0010
0001
1000
0100
0010
0001
1000
0100
0010
0001
1000
0100
0010
0001
1000
0100
0010
0001
1000
0100
0010
0001
1000
0100
0010
0001
1000
0100
0010
0001
1000
0100
0010
0001
1000
0100
0010
0001
1000
0100
0010
0001
,
1000
0100
0010
0001
1000
0100
0010
0001
1000
0100
0010
0001
1000
0100
0010
0001
1000
0100
0010
0001
1000
0100
0010
0001
1000
0100
0010
0001
1000
0100
0010
0001
1000
0100
0010
0001
1000
0100
0010
0001
1000
0100
0010
0001
1000
0100
0010
0001
,
1100
0000
0100
0000
,
0100
0000
0100
0000
,
0200
0000
0000
0000
,
0000
0000
0000
0000
,
1311
0000
0000
0000
0000
0000
0000
0000
0000
0000
0000
0000
0000
0000
0000
0000
0000
0000
0000
0000
0000
0000
0000
0000
0000
0000
0000
0000
0000
0000
0000
0000
0000
0000
0000
0000
0000
0000
0000
0000
0000
0000
0000
0000
0000
0000
0000
0000
0000
0000
0000
0000
0000
0000
0000
0000
1000
0100
0010
0001
1000
0100
0010
0001
,
1000
0000
0000
0100
0000
0000
0010
0000
0000
0001
0000
0000
1000
0000
0000
0100
0000
0000
0010
0000
0000
0001
0000
0000
1000
0000
0000
0000
0100
0000
0000
0000
0010
0000
0000
0000
0001
0000
0000
0000
1000
0000
0000
0000
0100
0000
0000
0000
0010
0000
0000
0000
0000
0000
0001
0000
0000
0000
0000
0000
1000
0000
0000
0000
0000
0000
0100
0000
0000
0000
0000
0000
0010
0000
0000
0000
0000
0000
0000
0000
0001
0000
0000
0000
0000
0000
0000
0000
1000
0000
0000
0000
0000
0000
0000
0000
0100
0000
0000
0000
0000
0000
0000
0000
0000
0000
0000
0000
0000
0000
0000
0000
0010
0000
0000
0000
0000
0000
0000
0000
0000
0000
0000
0000
0000
0000
0000
0000
0000
0000
0000
0000
0000
0000
0000
0000
0001
0000
0000
0000
0000
0000
0000
0000
0000
0000
0000
0000
0000
0000
0000
0000
0000
0000
0000
0000
0000
0000
0000
0000
2002
0000
0000
0000
0000
0000
0000
0000
0000
0000
0000
0000
0000
0000
0000
0000
0000
0000
0000
0000
0000
0000
0000
0000
3003
0000
0000
0000
0000
0000
0000
0000
,
0111
0111
0111
0111
0111
0111
0111
0111
,
0111
0111
0111
0111
0111
0111
0111
0111
,
1110
1110
1110
1110
1110
1110
1110
1110
,
1110
1110
1110
1110
1110
1110
1110
1110
,
2222
0000
0000
0000
,
3333
0000
0000
0000
,
0000
0000
0000
0000
,
2000
0000
3001
2000
0000
3001
2000
0000
3001
2000
0000
3001
,
2000
0000
3001
2000
0000
3001
2000
0000
3001
2000
0000
3001
,
2000
0000
3002
0000
0203
0000
0320
0000
2030
0000
3002
0000
,
0203
0000
0320
0000
2030
0000
3002
0000
0203
0000
0320
0000
,
2030
0000
0000
0000
0000
0000
0000
0000
0000
0000
0000
0000
0000
0000
0000
0000
0000
0000
0000
0000
0000
0000
0000
0000
0000
0000
0000
0000
0000
0000
0000
0000
3200
0000
0000
0000
0000
0000
0000
0000
0000
0000
0000
0000
0000
0000
0000
0000
0000
0000
0000
0000
0000
0000
0000
0000
0000
0000
0000
0000
0000
0000
0000
0000
0320
0000
0000
0000
0000
0000
0000
0000
0000
0000
0000
0000
0000
0000
0000
0000
0000
0000
0000
0000
0000
0000
0000
0000
0000
0000
0000
0000
0000
0000
0000
0000
0031
0000
0000
0000
0000
0000
0010
0000
0000
0100
0000
0000
1000
0000
0000
0001
0000
0000
0010
0000
0000
0100
0000
0000
1000
0000
0000
0000
0000
0000
0000
0000
0000
0000
0000
0000
0000
0000
0000
0000
0000
0000
0000
0000
0000
0000
0000
0000
1001
0000
0000
0000
0000
0000
0000
0000
0000
0000
0000
0000
0000
0000
0000
0000
0000
0000
0000
0000
0000
0000
0000
0000
0110
0000
0000
0000
0000
0000
0000
0000
0000
0000
0000
0000
0000
0000
0000
0000
0000
0000
0000
0000
0000
0000
0000
0000
,
0011
0101
1100
0110
1001
0101
0011
0101
,
1001
1100
0110
1100
0101
0022
0033
1100
,
0011
0101
1001
0110
1100
0110
1001
0101
,
1001
1100
0110
1100
0101
1010
1010
1010
,
1100
1100
0110
0011
0101
1010
0101
0011
,
1100
1100
1100
1100
1100
1100
1100
1100
,
0101
0101
0101
0101
0101
0101
0101
0101
,
1010
1010
1010
1010
1010
1010
1010
1010
,
0011
0011
0011
0011
0011
0011
0011
0011
,
1001
1001
0101
0101
1100
0011
0110
1100
,
1001
1001
0101
0101
1100
0011
0110
1100
,
0101
0220
0000
2332
3003
0110
0000
0000
,
0000
0110
0000
0000
0000
0110
0110
0110
,
0100
0010
0100
0010
0200
0000
0320
0000
0230
0000
0302
0000
2003
0000
3020
0000
,
0230
0000
0302
0000
2003
0000
3020
0000
0230
0000
0302
0000
1003
0001
1000
0001
,
1000
0001
1000
0001
2000
0000
3200
0000
0320
0000
0032
0000
2003
0000
3200
0000
,
0320
0000
0032
0000
2003
0000
3200
0000
0320
0000
0031
0010
0100
1000
0001
0010
,
0100
1000
0002
0000
0203
0000
0320
0000
2030
0000
3002
0000
0203
0000
0320
0000
,
2030
0000
3200
0000
0320
0000
0032
0000
0103
0010
1000
0001
0010
0100
0001
0010
,
0001
0010
0100
0010
0001
0010
1000
0100
0010
0100
1000
0100
0010
0001
0100
0010
,
1000
0000
0000
0001
0000
0000
0100
0000
0000
0010
0000
0000
0001
0000
0000
1000
0000
0000
0100
0000
0000
1000
0000
0000
0010
0000
0100
0000
0010
0000
0100
0000
0010
0000
0100
0000
0010
0000
0100
0000
0010
0000
0100
0000
0010
0000
0100
0000
,
0010
0100
1000
0100
0010
0001
0100
0010
1000
0001
0100
0010
0001
0100
0010
1000
0100
0010
0001
0100
1000
0100
0010
1000
,
0010
0100
0001
0100
0010
1000
0100
0010
0100
0010
0100
0010
1000
0001
1000
0001
1000
0001
1000
0100
0010
0001
0100
0010
,
1000
0001
0100
0010
1000
0100
0010
0001
0100
0010
1000
0100
0001
0010
0001
0100
0010
0100
0010
1000
0100
1000
0010
0100
,
0010
1000
0001
0100
0010
1000
0100
0010
0100
0010
0100
0010
1000
0001
1000
0001
1000
0001
1000
0100
0010
0001
0100
1000
,
0100
0010
0100
0001
0010
0100
1000
0100
0001
0010
0001
0100
0010
1000
0100
0010
1000
0100
0001
0010
0100
1000
0010
0100
,
0001
1000
0010
0100
0010
0001
1110
0000
0000
0000
0000
0000
0000
0000
0000
0000
0000
0000
0000
0000
0000
0000
0000
0000
,
1000
0100
0010
0001
0010
0100
1000
0100
,
0010
0001
0100
0010
1000
0010
0100
0001
,
0010
0001
0100
0010
1000
0100
0010
0001
,
0100
0010
0100
1000
0100
0001
0010
0002
,
0000
0000
0000
0000
,
1003
0000
0000
0010
0100
0000
0010
0000
0000
1000
0001
0000
0100
0000
0000
0010
1000
0000
0010
0000
0000
0001
0100
0000
,
0010
0000
0000
0010
1000
0000
0100
0000
0000
0100
0001
0000
0010
0000
0000
1000
0100
0000
0010
0000
0000
0001
1000
0000
,
0200
0300
1000
1000
1000
1000
1000
1000
,
1000
0100
0010
0001
0100
0010
1000
0100
,
0001
0010
0001
0100
1000
0010
0100
1000
,
0010
0100
0001
1000
0010
0100
0001
0010
,
0100
0000
1000
0000
0100
1000
0010
0100
0001
1000
0100
0001
0010
0100
1000
0001
,
0010
0100
0010
0001
0100
1000
0010
0100
0001
1000
0100
0001
0010
0100
1000
0001
,
0010
0100
0010
0001
0100
1000
0010
0100
0001
1000
0100
0001
0010
0100
1000
0001
,
0010
0100
0010
0001
0100
1000
0010
0100
0001
1000
0100
0001
0010
0100
1000
0001
,
0010
0000
0100
0000
0010
0000
0001
0000
0100
0010
1000
0001
0010
1000
0100
0010
0001
0100
1000
0010
0100
1000
0001
0100
0010
1000
0100
0010
1000
0100
0001
1000
,
0010
0001
0100
1000
0010
0100
0001
0010
0100
0010
1000
0001
0010
1000
0100
0010
0001
0100
1000
0010
0100
1000
0001
0100
0010
0000
0000
0000
1000
0000
0000
0000
,
0100
0100
0100
0100
0100
0100
0100
0100
,
0100
0000
0000
0000
0000
0000
0100
0000
0000
0000
0000
0000
0100
0000
0000
0000
0000
0000
0100
0000
0000
0000
0000
0000
0100
0000
0000
0000
0000
0000
0100
0000
0000
0000
0000
0000
0100
0010
0001
1000
0100
0010
0001
1000
0100
0010
0001
1000
,
0100
0010
0001
1000
0100
0010
0001
1000
0100
0010
0001
1000
0100
0010
0001
1000
0100
0010
0001
1000
0100
0010
0001
1000
0100
0010
0001
1000
0100
0010
0001
1000
0100
0010
0001
1000
0100
0010
0001
1000
0100
0010
0001
1000
0100
0010
0001
1000
,
0100
0010
0001
1000
0100
0010
0001
1000
0100
0010
0001
1000
0100
0010
0001
1000
0100
0010
0001
1000
0100
0010
0001
1000
0100
0000
0000
0000
0000
0000
0001
0000
0000
0000
0000
0000
0010
0000
0000
0000
0000
0000
1000
0000
0000
0000
0000
0000
,
0001
0000
0000
0000
0001
0000
0000
0001
0000
0000
0001
0000
0001
1000
0010
0100
,
0001
0000
0000
1000
0000
0000
0010
0000
0000
0100
0000
0000
0001
0000
0000
0000
0000
0000
0000
0000
0000
0000
0000
0000
1000
0000
0000
0000
0001
0000
0000
0000
0100
0000
0000
0000
0010
0000
0000
0000
1000
0000
0000
0000
0001
0000
0000
0000
,
0100
0000
0000
0010
0000
0000
0100
0000
0010
0000
1000
0000
0002
0000
0020
0000
0200
0000
2000
0000
0000
0000
0000
0000
0000
0000
0000
0000
0000
0000
0000
0000
0000
0000
0000
0000
0000
0000
0000
0000
0000
0000
0000
0000
0000
0000
0000
0000
,
3333
0000
0000
0000
,
1001
0100
0010
0100
0010
0100
0010
0100
,
1001
0101
0011
1001
,
1100
0000
0110
0000
1100
0000
0101
1100
,
1001
1010
1100
1001
,
0011
0000
0110
0000
0011
0000
1010
0011
,
0110
0011
1010
0110
,
0101
0000
1001
0000
0101
0000
0011
0101
,
0110
1100
0101
0110
,
1010
0000
1001
0000
1010
0000
1100
1010
,
0101
1000
0010
1000
0001
0100
0010
0100
,
1000
0001
0100
0010
1000
0010
1100
0011
,
1001
0100
1000
0100
0010
0001
1000
0001
,
0100
0010
0001
1000
0100
1000
0001
0010
,
0101
1000
0010
1000
0001
0100
0010
0100
,
1000
0001
0100
0010
1000
0010
0100
0001
,
0110
1000
0010
1000
0001
0100
0010
0100
,
1000
0001
0100
0010
1000
0010
0100
0001
,
2220
3330
2202
3303
,
0222
0333
2022
3033
,
1111
0000
1111
0000
1111
0000
1111
0000
0000
1111
0000
0000
1111
0000
0000
1111
,
0000
0000
1111
0000
0000
0000
0000
0000
0000
2222
0000
0000
0000
0000
0000
0000
,
0000
0000
0000
0000
0000
0000
0000
0000
0000
3333
0000
0000
0000
0000
0000
0000
,
1001
0000
0000
0000
0000
0000
0000
0000
1000
0100
0010
0001
0010
0100
1000
0100
,
0010
0001
1000
0100
0010
0001
1000
0100
0010
0001
1000
0100
0010
0001
1000
0100
0010
0001
1000
0100
0010
0001
1000
0100
2022
0000
0000
0000
0000
0000
0000
0000
0000
0000
0000
0000
0000
0000
0000
0000
0000
0000
0000
0000
0000
0000
0000
0000
,
0000
0000
0000
0000
,
0000
0000
0000
0000
,
3033
0000
0000
0000
;
